Old 07-04-2022, 08:28 AM   #1
Angelchc
Human being with feelings
 
Join Date: Sep 2021
Location: Switzerland
Posts: 7
Default UTF-8

Hallo zusammen,

Meine Cuesheets werden leider beim Rendern in die "WAV" Datei,
mit der falschen Codierung gespeichert, sodass dann auf meinen Musikplayer,
die Sonderzeichen falsch angezeigt werden.
Wo kann man das im Reaper einstellen ?

Danke !

Gruss..

Angel


PERFORMER "Angel"
FILE "Angels_Trance_Session_56.mp3" MP3
TRACK 01 AUDIO
TITLE "Giuseppe Ottaviani & Dan Soleil - Hero"
INDEX 01 00:00:00
TRACK 02 AUDIO
TITLE "Giuseppe Ottaviani & Natalie Shay - Replay"
INDEX 01 04:13:20
TRACK 03 AUDIO
TITLE "Jameson Tullar - Without You"
INDEX 01 08:17:58
TRACK 04 AUDIO
TITLE "John Lennon - Imagine"
INDEX 01 16:12:11
TRACK 05 AUDIO
TITLE "NoMosk - Stay With Me"
INDEX 01 21:17:62
TRACK 06 AUDIO
TITLE "Paipy - Heaven"
INDEX 01 27:18:02
TRACK 07 AUDIO
TITLE "Slyder - Neo"
INDEX 01 33:46:37
TRACK 08 AUDIO
TITLE "Clokx - Catch Your Fall"
INDEX 01 42:01:00
TRACK 09 AUDIO
TITLE "Sons of Methuselah - Convolutions"
INDEX 01 47:04:09
TRACK 10 AUDIO
TITLE "Christina Novelli - Numb"
INDEX 01 55:33:39
TRACK 11 AUDIO
TITLE "Ciaran McAuley & Clara Yates - Anything"
INDEX 01 58:28:00
TRACK 12 AUDIO
TITLE "Christina Stürmer - Millionen Lichter"
INDEX 01 63:38:69
TRACK 13 AUDIO
TITLE "Thoneick, Diaz & Young Rebels - Perfect Moment"
INDEX 01 67:09:32
TRACK 14 AUDIO
TITLE "Dave Oren - NOT Music For The Masses"
INDEX 01 70:27:08
TRACK 15 AUDIO
TITLE "Maria Healy & Deirdre McLaughlin - Believe In You"
INDEX 01 73:57:00
TRACK 16 AUDIO
TITLE "Ben Gold - Rest Of Our Lives"
INDEX 01 77:15:37
TRACK 17 AUDIO
TITLE "Craig Connelly Remix - The Promise"
INDEX 01 86:17:13
TRACK 18 AUDIO
TITLE "Activa & Slipstream - Cassini"
INDEX 01 90:15:67
Angelchc is offline   Reply With Quote
Reply

Thread Tools
Display Modes

Posting Rules
You may not post new threads
You may not post replies
You may not post attachments
You may not edit your posts

BB code is On
Smilies are On
[IMG] code is On
HTML code is Off

Forum Jump


All times are GMT -7. The time now is 05:29 PM.


Powered by vBulletin® Version 3.8.11
Copyright ©2000 - 2022, vBulletin Solutions Inc.